#TITLE:Toc Dep;
#SUBTITLE:;
#ARTIST:Minh Hang;
#TITLETRANSLIT:Toc Dep;
#SUBTITLETRANSLIT:;
#ARTISTTRANSLIT:Minh Hang;
#CREDIT:;
#BANNER:Toc Dep-bn.png;
#BACKGROUND:Toc Dep-bg.png;
#LYRICSPATH:;
#CDTITLE:pm4cd.png;
#MUSIC:Toc Dep.mp3;
#OFFSET:-0.020;
#SAMPLESTART:54.656;
#SAMPLELENGTH:20.000;
#SELECTABLE:YES;
#BPMS:0.000=190.020;
#STOPS:;
#BGCHANGES:0.000=Toc Dep.avi=1.000=0=0=1,
581.000=Toc Dep-bg.png=1.000=0=0=1,
99999=-nosongbg-=1.000=0=0=0 // don't automatically add -songbackground-
;
// cache tags:
#FIRSTBEAT:1.250;
#LASTBEAT:580.000;
#SONGFILENAME:Songs/Music V.I.P ^_^/Toc Dep/Toc Dep.sm;
#HASMUSIC:1;
#HASBANNER:1;
#MUSICLENGTH:168.027;
// end cache tags

//---------------dance-single - ----------------
#NOTES:
     dance-single:
     :
     Hard:
     13:
     1.000,1.000,1.000,0.107,1.000,1006.000,331.000,18.000,4.000,49.000:
0000
0000
0000
0000
0000
0001
0000
0000
0000
0001
0000
0000
0000
0001
0000
0100
,
0000
1001
0000
0000
0000
1100
0000
0010
0000
0100
0000
0001
0000
1000
0000
0100
,
0000
0001
0000
1000
0000
0110
0000
0001
0000
1000
0000
0010
0000
1000
0000
0001
,
0000
0100
0000
0010
0000
1001
0000
0001
0000
0010
0000
1000
0000
0100
0000
0010
,
0000
0100
0000
0001
0000
0110
0000
1000
0000
0100
0000
0010
0000
0001
0000
0010
,
0000
1000
0000
0100
0000
0101
0000
0010
0000
0100
0000
1000
0000
0010
0000
0001
,
0000
0100
0000
0010
0000
1100
0000
0100
0000
0001
0000
0100
0000
0001
0000
0010
,
0000
0100
0000
0001
0000
1010
0000
0010
0000
1000
0000
1000
0000
0001
0000
0100
,
0000
0100
0000
0010
0000
0101
0000
0010
0000
0100
0000
0010
0000
0001
0000
0100
,
0000
0010
0000
0100
0000
1011
0000
0100
0000
0010
0000
0001
0000
0100
0000
0010
,
0000
0100
0000
1000
0000
0111
0000
1000
0000
1000
0000
0100
0000
0100
0000
0010
,
0000
0010
0000
0001
0000
1010
0000
0100
0000
1000
0000
0010
0000
0100
0000
1000
,
0000
0100
0000
0010
0000
1001
0000
0100
0000
1000
0000
0010
0000
0100
0000
0001
,
0000
1000
0000
0100
0000
0011
0000
0001
0000
0100
0000
0010
0000
0100
0000
1000
,
0000
0010
0000
0100
0000
1100
0000
0010
0000
0001
0000
0100
0000
0010
0000
0100
,
0000
0001
0000
0010
0000
1001
0000
1000
0000
0100
0000
0010
0000
0001
0000
0100
,
0000
0010
0000
0100
0000
1100
0000
0001
0000
0010
0000
0100
0000
1000
0000
0010
,
0000
0100
0000
0001
0000
1000
0000
0000
0000
1000
0000
0000
0000
1000
0000
0000
,
0000
1000
0000
0000
0000
1000
0000
0000
0000
0000
0000
0010
0000
0000
0000
0000
,
0000
0000
0000
0000
0000
0001
0000
0000
0000
0001
0000
0000
0000
0001
0000
0000
,
0000
0001
0000
0000
0000
0001
0000
0000
0000
0000
0000
0100
0000
0000
0000
1100
,
0000
1011
0000
0000
0000
0010
0000
0000
0000
0010
0000
0000
0000
0010
0000
0000
,
0000
0010
0000
0000
0000
0010
0000
0000
0000
1000
0000
0000
0000
0100
0000
0010
,
0000
0000
0000
0000
0000
0002
0000
0000
0000
0000
0000
0000
0000
0000
0000
0000
,
0000
0000
0000
0000
0000
1013
0000
0000
0000
0011
0000
0000
0000
1001
0010
1000
,
0010
1000
0010
1000
0010
0101
0000
0010
0000
1000
0000
0001
0000
0010
0000
0100
,
0000
0011
0000
1000
0000
0110
0000
0001
0000
1010
0000
0100
0000
0001
0000
1010
,
0000
0101
0000
0010
0000
1100
0000
0001
0000
0100
0000
1000
0000
0001
0000
0100
,
0000
1010
0000
0001
0000
0110
0000
1000
0000
1010
0000
0001
0000
0010
0000
1100
,
0000
0011
0000
1000
0000
0110
0000
0001
0000
1000
0000
0001
0000
0010
0000
0100
,
0000
0011
0000
1000
0000
0110
0000
0001
0000
1001
0000
0100
0000
0001
0000
0110
,
0000
1001
0000
0100
0000
2010
0000
0100
0000
0011
0000
0001
0000
0010
0000
0101
,
0000
0101
0000
0010
0000
3101
0000
1010
0000
0000
0000
0000
0000
0110
0000
1001
,
0000
0000
0000
1100
0000
0011
0000
0100
0000
0001
0000
0010
0000
1000
0000
0101
,
0000
1010
0000
0100
0000
0011
0000
1000
0000
1001
0000
0110
0000
1100
0000
0101
,
0000
1010
0000
1100
0000
0011
0000
0100
0000
0010
0000
1000
0000
0100
0000
0010
,
0000
1001
0000
0100
0000
0010
0000
0001
0000
0110
0000
1001
0000
0011
0000
1100
,
0000
0110
0000
0000
0000
0101
0000
1010
0000
0101
0000
0011
0000
1100
0000
0011
,
0000
0000
0000
0000
0000
1001
0000
0110
0000
1001
0000
0101
0000
1010
0000
0101
,
0000
0000
0000
0000
0000
0011
0000
1100
0000
0011
0000
1001
0000
1010
0000
1100
,
0000
0000
0000
0000
0000
0001
0000
0000
0000
0010
0000
0100
0000
0000
0000
1000
,
0000
0000
0000
0000
0000
0021
0000
0000
0000
0001
0000
0000
0000
0100
1000
0100
,
1000
0100
1000
0100
1000
0130
1000
0100
0010
0001
0010
0100
1000
0100
0010
0001
,
0010
0100
1000
0100
0010
1101
0000
0001
0000
0110
0000
1000
0000
0101
0000
0010
,
0000
1100
0000
0001
0000
0110
0000
1000
0000
0101
0000
0010
0000
1100
0000
0010
,
0000
0101
0000
1000
0000
0110
0000
0001
0000
1010
0000
0100
0000
0011
0000
1000
,
0000
0110
0000
0001
0000
1010
0000
0000
0000
0011
0000
0000
0000
0101
0000
0000
,
0000
1001
0000
0000
0000
1100
0000
0010
0000
1001
0000
0100
0000
1010
0000
0010
,
0000
1100
0000
0010
0000
1001
0000
0100
0000
1010
0000
0010
0000
0110
0000
1000
,
0000
0011
0000
0100
0000
1001
0000
0010
0000
0101
0000
0100
0000
0110
0000
0001
,
0000
1010
0000
0100
0000
0011
0000
0000
0000
1010
0000
0000
0000
1001
0000
0000
,
0000
0101
0000
0000
0000
1100
0000
0000
0000
1100
0000
0000
0000
1100
0000
0000
,
0000
0000
0000
1001
0000
0000
0000
0100
0000
0011
0000
0100
0000
1010
0001
0010
,
0001
0010
0001
0010
0001
0110
1000
0100
0010
0001
0010
0100
1000
0100
0010
0001
,
0010
0100
1000
0100
0010
0001
0010
0100
1000
0100
0010
0001
0010
0100
1000
0100
,
0010
0001
0010
0100
1000
1000
0100
0010
0001
0001
0010
0100
1000
1000
0100
0010
,
0001
0001
0010
0100
1000
1000
0100
0010
0001
0001
0010
0100
1000
0100
0010
0001
,
0010
0100
1000
0100
0010
1001
0100
0010
0001
0010
0100
0010
0001
0010
0100
0010
,
0001
0010
0100
0010
0001
0010
0100
1000
0100
0010
0100
1000
0100
0010
0100
1000
,
0100
0010
0100
1000
1000
0100
0010
0100
0010
0001
0001
0010
0100
0010
0100
1000
,
1000
0100
0010
0100
0010
0001
0001
0010
0100
0010
0100
1000
1000
0100
0010
0100
,
0010
0001
0001
0010
0100
1010
0100
0001
1000
0100
0001
1000
0100
0001
1000
0100
,
0001
1000
0100
0001
0010
1000
0001
0010
1000
0001
0010
1000
0001
0010
1000
0001
,
0010
1000
0001
0010
1000
0101
0010
0100
1000
0010
0100
1000
0010
0100
1000
0010
,
0100
1000
0010
0100
1000
0011
0100
1000
1000
0100
0010
0001
0001
0010
0100
1000
,
1000
0100
0010
0001
0001
1010
0000
0000
0000
0101
0000
0000
0000
1100
0000
0000
,
0000
0011
0000
0100
0000
0001
0000
0100
0000
1001
0000
0001
0000
0010
0000
1100
,
0000
0011
0000
0100
0000
1001
0000
0100
0000
0011
0000
1000
0000
0100
0000
0011
,
0000
1100
0000
0000
0000
0101
0000
1010
0000
0000
0000
0101
0000
1010
0000
0000
,
0000
0101
0000
1010
0000
0100
0000
0000
0000
0100
0000
0000
0000
0100
0000
0000
,
0000
0100
0000
0000
0000
0100
0000
0000
0000
0000
0000
1000
0000
0000
0000
0000
,
0000
0000
0000
0000
0000
0010
0000
0000
0000
0010
0000
0000
0000
0010
0000
0000
,
0000
0010
0000
0000
0000
0010
0000
0000
0000
0000
0000
0001
0000
0000
0000
0101
,
0000
0111
0000
0000
0000
1000
0000
0000
0000
1000
0000
0000
0000
1000
0000
0000
,
0000
1000
0000
0000
0000
1000
0000
0000
0000
0010
0000
0000
0000
1000
0000
0001
,
0000
0000
0000
0000
0000
0200
0000
0000
0000
0000
0000
0000
0000
0000
0000
0000
,
0000
0000
0000
0000
0000
0311
0000
0000
0000
1010
0000
0000
0000
0110
0001
1000
,
0001
1000
0001
1000
0001
1100
0000
0001
0000
0010
0000
1000
0000
0010
0000
0001
,
0000
0101
0000
0010
0000
1100
0000
0010
0000
1001
0000
0100
0000
0010
0000
1001
,
0000
0110
0000
0001
0000
1010
0000
0100
0000
0001
0000
0010
0000
0100
0000
1000
,
0000
0101
0000
0010
0000
1001
0000
0100
0000
0011
0000
1000
0000
0010
0000
0101
,
0000
1010
0000
0100
0000
1001
0000
0100
0000
0010
0000
0001
0000
1000
0000
0100
,
0000
1001
0000
0100
0000
0101
0000
0010
0000
1100
0000
0010
0000
0001
0000
1100
,
0000
0011
0000
0001
0000
0012
0000
0100
0000
1100
0000
1000
0000
0100
0000
0110
,
0000
0110
0000
1000
0000
0110
0000
1103
0000
0000
0000
0000
0000
0011
0000
0110
,
0000
0000
0000
0101
0000
1010
0000
0100
0000
0010
0000
0001
0000
0100
0000
0011
,
0000
1100
0000
0010
0000
1001
0000
0100
0000
0011
0000
1100
0000
0011
0000
1010
,
0000
0101
0000
1010
0000
0110
0000
0001
0000
1000
0000
0100
0000
0001
0000
0100
,
0000
1010
0000
0001
0000
0100
0000
1000
0000
0011
0000
1100
0000
0011
0000
0110
,
0000
1001
0000
0000
0000
0110
0000
1001
0000
0110
0000
1010
0000
0101
0000
1010
,
0000
0000
0000
0000
0000
1001
0000
0110
0000
1001
0000
0011
0000
1100
0000
0011
,
0000
0000
0000
0000
0000
1100
0000
0011
0000
1100
0000
1010
0000
0101
0000
1010
,
0000
0000
0000
0000
0000
0100
0000
0000
0000
0001
0000
1000
0000
0000
0000
0010
,
0000
0000
0000
0000
0000
1200
0000
0000
0000
1000
0000
0000
0000
0001
0010
0001
,
0010
0001
0010
0001
0010
0301
0010
0100
1000
0100
0010
0001
0010
0100
1000
0100
,
0010
0001
0010
0100
1000
0111
0000
0100
0000
0101
0000
0010
0000
1100
0000
0001
,
0000
1001
0000
0010
0000
1100
0000
0010
0000
1001
0000
0100
0000
1010
0000
0010
,
0000
0110
0000
0001
0000
1100
0000
1000
0000
0101
0000
0010
0000
1001
0000
0100
,
0000
0011
0000
0100
0000
1010
0000
0000
0000
1100
0000
0000
0000
1010
0000
0000
,
0000
1001
0000
0000
0000
0011
0000
0100
0000
0101
0000
0001
0000
1100
0000
0010
,
0000
0110
0000
0001
0000
1010
0000
0001
0000
1001
0000
1000
0000
0101
0000
0100
,
0000
1001
0000
0010
0000
1100
0000
0010
0000
1001
0000
0001
0000
0110
0000
1000
,
0000
1010
0000
0001
0000
1001
0000
0000
0000
0101
0000
0000
0000
0011
0000
0000
,
0000
0110
0000
0000
0000
0101
0000
0000
0000
0101
0000
0000
0000
0101
0000
0000
,
0000
0000
0000
1001
0000
0000
0000
0100
0000
1001
0000
0100
0000
0011
0100
0010
,
0100
0010
0100
0010
0100
2000
0000
0010
0000
0101
0000
0010
0000
0101
0000
0010
,
0000
0101
0000
0010
3000
0201
0000
1000
0000
0011
0000
1000
0000
0011
0000
1000
,
0000
0011
0000
1000
0300
0021
0000
0100
0000
1001
0000
0100
0000
1001
0000
0100
,
0000
1001
0000
0100
0030
1002
0000
0010
0000
1100
0000
0010
0000
1100
0000
0010
,
0000
1100
0000
0010
0003
1200
0000
0010
0000
1001
0000
0010
0000
1001
0000
0010
,
0000
1001
0000
0010
0300
2001
0000
0010
0000
0101
0000
0010
0000
0101
0000
0010
,
0000
0101
0000
0010
3000
0102
0000
1000
0000
0110
0000
1000
0000
0110
0000
1000
,
0000
0110
0000
1000
0003
0120
0000
1000
0000
0101
0000
1000
0000
0101
0000
1000
,
0000
0101
0000
1000
0030
0101
0000
0010
0000
1100
0000
0001
0000
1001
0000
0100
,
0000
0011
0000
0100
0000
0110
0000
1000
0000
0101
0000
0010
0000
1001
0000
1000
,
0000
0101
0000
0001
0000
0110
0000
1000
0000
1010
0000
0001
0000
1100
0000
0010
,
0000
0101
0000
0001
0000
1001
0000
0000
0000
1010
0000
0000
0000
1100
0000
0000
,
0000
1001
0000
0000
0000
1001
0000
0100
0000
0011
0000
0001
0000
1010
0000
0100
,
0000
0101
0000
0010
0000
1001
0000
0010
0000
0011
0000
0001
0000
1010
0000
0100
,
0000
1001
0000
0010
0000
0101
0000
0010
0000
1001
0000
0100
0000
0011
0000
0001
,
0000
1010
0000
0100
0000
1010
0000
0000
0000
1001
0000
0000
0000
0110
0000
0000
,
0000
1001
0000
0000
0000
1010
0000
0000
0000
1010
0000
0000
0000
1010
0000
0000
,
0000
0000
0000
1001
0000
0000
0000
0010
0000
1100
0000
0001
0000
1010
0001
1000
,
0001
1000
0001
1000
0001
1110
0000
0000
0000
1100
0000
0111
0000
0000
0000
1001
,
0000
1011
0000
0000
0000
1010
0000
1101
0000
0000
0000
0101
0000
1110
0000
0000
,
0000
1011
0000
0000
0000
2202
0000
0000
0000
0000
0000
0003
0000
0000
0000
0000
,
0000
0310
0001
0010
0100
0010
0001
0010
0100
0010
0001
0010
0100
0010
0001
0010
,
0100
0010
0001
0010
0100
0020
0000
0000
0000
0000
0000
0000
0000
0000
0000
0000
,
0000
0000
0000
0000
,
0000
0000
0000
0000
0000
0000
0000
3030
0000
0000
0000
0000
0000
0000
0000
0000
,
0000
0000
0000
0000
,
0000
0000
0000
0000
,
0000
0000
0000
0000
,
0000
0000
0000
0000
,
0000
0000
0000
0000
,
0000
0000
0000
0000
,
0000
0000
0000
0000
,
0000
0000
0000
0000
,
0000
0000
0000
0000
,
0000
0000
0000
0000
,
0000
0000
0000
0000
,
0000
0000
0000
0000
,
0000
0000
0000
0000
,
0000
0000
0000
0000
,
0000
0000
0000
0000
,
MMMM
0000
0000
0000
;
